[jeebs] Black Jack OVA (Dual Audio 10bit 1080p HEVC-x265)

Category:
Date:
2019-08-14 07:30 UTC
Submitter:
Seeders:
5
Information:
No information.
Leechers:
3
File size:
9.5 GiB
Completed:
165
Info hash:
f9d239369637c62c40794d74e3f3fdc812a6627f
Complete Episodes 1-10 (does not include the 2 Black Jack Final OVAs) with English/Japanese 2ch AAC Audio, English Subs (SRT) from [B-A] retimed, Japanese Subs (PGS) from BDMV. Source is JP BD Official. Anime info can be found here: http://anidb.net/perl-bin/animedb.pl?show=anime&aid=2544 Format : Matroska Format version : Version 4 Writing application : mkvmerge v35.0.0 ('All The Love In The World') 64-bit Writing library : libebml v1.3.9 + libmatroska v1.5.2 / Lavf58.20.100 Video ID : 1 Format : HEVC Format/Info : High Efficiency Video Coding Format profile : Main [email protected]@Main Codec ID : V_MPEGH/ISO/HEVC Width : 1 848 pixels Height : 1 078 pixels Display aspect ratio : 1.714 Frame rate mode : Constant Frame rate : 23.976 (24000/1001) FPS Color space : YUV Chroma subsampling : 4:2:0 Bit depth : 10 bits Bits/(Pixel*Frame) : 0.047 Stream size : 815 MiB (78%) Writing library : x265 2.9:[Windows][GCC 8.2.0][64 bit] 10bit Encoding settings : cpuid=1111039 / frame-threads=4 / numa-pools=16 / wpp / no-pmode / no-pme / no-psnr / no-ssim / log-level=2 / input-csp=1 / input-res=1848x1078 / interlace=0 / total-frames=0 / level-idc=0 / high-tier=1 / uhd-bd=0 / ref=4 / no-allow-non-conformance / no-repeat-headers / annexb / no-aud / no-hrd / info / hash=0 / no-temporal-layers / open-gop / min-keyint=24 / keyint=240 / gop-lookahead=0 / bframes=4 / b-adapt=2 / b-pyramid / bframe-bias=0 / rc-lookahead=25 / lookahead-slices=4 / scenecut=40 / radl=0 / no-intra-refresh / ctu=64 / min-cu-size=8 / rect / no-amp / max-tu-size=32 / tu-inter-depth=1 / tu-intra-depth=1 / limit-tu=0 / rdoq-level=2 / dynamic-rd=0.00 / no-ssim-rd / signhide / no-tskip / nr-intra=0 / nr-inter=0 / no-constrained-intra / strong-intra-smoothing / max-merge=3 / limit-refs=3 / limit-modes / me=3 / subme=3 / merange=57 / temporal-mvp / no-weightp / no-weightb / no-analyze-src-pics / no-deblock / no-sao / no-sao-non-deblock / rd=4 / no-early-skip / rskip / no-fast-intra / no-tskip-fast / no-cu-lossless / no-b-intra / no-splitrd-skip / rdpenalty=0 / psy-rd=2.00 / psy-rdoq=1.00 / no-rd-refine / no-lossless / cbqpoffs=0 / crqpoffs=0 / rc=crf / crf=22.0 / qcomp=0.60 / qpstep=4 / stats-write=0 / stats-read=0 / ipratio=1.40 / pbratio=1.30 / aq-mode=1 / aq-strength=1.00 / cutree / zone-count=0 / no-strict-cbr / qg-size=32 / no-rc-grain / qpmax=69 / qpmin=0 / no-const-vbv / sar=1 / overscan=0 / videoformat=5 / range=0 / colorprim=1 / transfer=1 / colormatrix=1 / chromaloc=0 / display-window=0 / max-cll=0,0 / min-luma=0 / max-luma=1023 / log2-max-poc-lsb=8 / vui-timing-info / vui-hrd-info / slices=1 / no-opt-qp-pps / no-opt-ref-list-length-pps / no-multi-pass-opt-rps / scenecut-bias=0.05 / no-opt-cu-delta-qp / no-aq-motion / no-hdr / no-hdr-opt / no-dhdr10-opt / no-idr-recovery-sei / analysis-reuse-level=5 / scale-factor=0 / refine-intra=0 / refine-inter=0 / refine-mv=0 / no-limit-sao / ctu-info=0 / no-lowpass-dct / refine-mv-type=0 / copy-pic=1 / max-ausize-factor=1.0 / no-dynamic-refine / no-single-sei Default : Yes Forced : No Color range : Limited Color primaries : BT.709 Transfer characteristics : BT.709 Matrix coefficients : BT.709 Audio #1 ID : 2 Format : AAC LC Format/Info : Advanced Audio Codec Low Complexity Codec ID : A_AAC-2 Bit rate : 257 kb/s Channel(s) : 2 channels Channel layout : L R Sampling rate : 48.0 kHz Frame rate : 46.875 FPS (1024 SPF) Compression mode : Lossy Delay relative to video : -21 ms Stream size : 92.9 MiB (9%) Title : Stereo Language : Japanese Default : Yes Forced : No Audio #2 ID : 3 Format : AAC LC Format/Info : Advanced Audio Codec Low Complexity Codec ID : A_AAC-2 Bit rate : 257 kb/s Channel(s) : 2 channels Channel layout : L R Sampling rate : 48.0 kHz Frame rate : 46.875 FPS (1024 SPF) Compression mode : Lossy Delay relative to video : -21 ms Stream size : 92.9 MiB (9%) Title : Stereo Language : English Default : No Forced : No Text #1 ID : 4 Format : PGS Muxing mode : zlib Codec ID : S_HDMV/PGS Codec ID/Info : Picture based subtitle format used on BDs/HD-DVDs Bit rate : 332 kb/s Count of elements : 4712 Stream size : 119 MiB (11%) Language : Japanese Default : No Forced : No Text #2 ID : 5 Format : UTF-8 Codec ID : S_TEXT/UTF8 Codec ID/Info : UTF-8 Plain Text Bit rate : 57 b/s Count of elements : 495 Stream size : 20.9 KiB (0%) Language : English Default : Yes Forced : No

File list

  • Season 01 · Black Jack OVA (1080p HEVC)
    • Black Jack OVA · S01 E01 · Clinical Chart 1 - Iceberg, Chimaera Man (1080p HEVC).mkv (1.2 GiB)
    • Black Jack OVA · S01 E02 · Clinical Chart 2 - A Funeral, The Procession Game (1080p HEVC).mkv (1.0 GiB)
    • Black Jack OVA · S01 E03 · Clinical Chart 3 - Decoration of Maria and Her Commrades (1080p HEVC).mkv (1.2 GiB)
    • Black Jack OVA · S01 E04 · Clinical Chart 4 - Anorexia, The Two Dark Doctors (1080p HEVC).mkv (1.0 GiB)
    • Black Jack OVA · S01 E05 · Clinical Chart 5 - The Owl of San Merida (1080p HEVC).mkv (1020.5 MiB)
    • Black Jack OVA · S01 E06 · Clinical Chart 6 - Night Time Tale in the Snow (1080p HEVC).mkv (1004.7 MiB)
    • Black Jack OVA · S01 E07 · Clinical Chart 7 - Black and White (1080p HEVC).mkv (911.0 MiB)
    • Black Jack OVA · S01 E08 · Clinical Chart 8 - Thoughts For Green (1080p HEVC).mkv (797.4 MiB)
    • Black Jack OVA · S01 E09 · Clinical Chart 9 - The Carbuncle (1080p HEVC).mkv (719.7 MiB)
    • Black Jack OVA · S01 E10 · Clinical Chart 10 - Sinking Woman (1080p HEVC).mkv (760.5 MiB)
Classic show :) Thanks for this!
Very great show in classic. Thank you very much for sharing