Prince Planet (1965-1966) / Yusei Shounen Papi / 遊星少年パピイ [Eng Dub]

Category:
Date:
2019-08-14 14:12 UTC
Submitter:
Seeders:
2
Information:
No information.
Leechers:
4
File size:
8.4 GiB
Completed:
87
Info hash:
167d6ea8e4770439f0f88ab84961cdb6b5a85ea6
Got this from BakaBT Mega as well: https://mega.nz/#F!PKRTkIyL!X6gpcN5aP3OSFFcaPzzM5A (Can't guarantee that the above link will work long term) Also my internet kinda sucks... so upload will be at ~1MB/s... Info from ep 1: Format : Flash Video File size : 174 MiB Duration : 26 min 27 s Overall bit rate : 918 kb/s httphostheader : v14.lscache8.c.youtube.com Video Format : AVC Format/Info : Advanced Video Codec Format profile : [email protected] Format settings : CABAC / 3 Ref Frames Format settings, CABAC : Yes Format settings, Reference frames : 3 frames Format settings, GOP : M=1, N=24 Codec ID : 7 Duration : 26 min 27 s Bit rate : 801 kb/s Width : 640 pixels Height : 480 pixels Display aspect ratio : 4:3 Frame rate mode : Constant Frame rate : 23.976 (23976/1000) FPS Color space : YUV Chroma subsampling : 4:2:0 Bit depth : 8 bits Scan type : Progressive Bits/(Pixel*Frame) : 0.109 Stream size : 152 MiB (87%) Audio Format : AAC LC Format/Info : Advanced Audio Codec Low Complexity Codec ID : 10-2 Duration : 26 min 28 s Bit rate : 109 kb/s Channel(s) : 2 channels Channel layout : L R Sampling rate : 44.1 kHz Frame rate : 43.066 FPS (1024 SPF) Compression mode : Lossy Stream size : 20.6 MiB (12%)

File list

  • Prince Planet
    • 01 - A Boy from Outer Space.flv (173.7 MiB)
    • 02 - Giant on the Matters.flv (173.1 MiB)
    • 03 - The Formidable Rival.flv (172.6 MiB)
    • 04 - The Arabian Magician.flv (171.9 MiB)
    • 05 - The Flying Jelly Fish.flv (171.3 MiB)
    • 06 - Dinosaur Men.flv (172.0 MiB)
    • 07 - A Big Showdown.flv (172.6 MiB)
    • 08 - Robot Island.flv (171.3 MiB)
    • 09 - The Overgrown Lizard.flv (174.2 MiB)
    • 10 - Shaberia.flv (172.5 MiB)
    • 11 - Fancy Machine.flv (172.8 MiB)
    • 12 - S.O.S. Global.flv (172.7 MiB)
    • 13 - Gold Picker.flv (171.3 MiB)
    • 14 - Attack Of Radioactive Ants.flv (172.0 MiB)
    • 15 - The Great Space War.flv (172.1 MiB)
    • 16 - The Star In Memory.flv (172.5 MiB)
    • 17 - The Space Zoo.flv (172.6 MiB)
    • 18 - The Stolen Mt. Fuji.flv (172.8 MiB)
    • 19 - Pirate Satan.flv (172.4 MiB)
    • 20 - The Planet Terror.flv (172.5 MiB)
    • 21 - Robot No. 9.flv (172.7 MiB)
    • 22 - Goodbye Saturnean.flv (172.0 MiB)
    • 23 - The Earth Zero Hour.flv (171.8 MiB)
    • 24 - The Ghost Space Ship.flv (172.1 MiB)
    • 25 - Battle On A Desert Island.flv (171.4 MiB)
    • 26 - Secret Under The Sea.flv (171.4 MiB)
    • 27 - The Rocket Pilot.flv (171.8 MiB)
    • 28 - Gaist, The Devilish.flv (171.4 MiB)
    • 29 - The Gift From Prince Planet.flv (171.3 MiB)
    • 30 - Gollen, The Formidable Foe.flv (158.5 MiB)
    • 31 - The Pollen Bomb.flv (156.9 MiB)
    • 32 - Operation Rico.flv (172.2 MiB)
    • 33 - Rico, The Great Detective.flv (158.6 MiB)
    • 34 - A Spy From The Necro.flv (172.3 MiB)
    • 35 - The Demon Scientist.flv (171.6 MiB)
    • 36 - The Young Spies.avi (98.3 MiB)
    • 37 - Alan, The Secret Agent.flv (152.0 MiB)
    • 38 - The Magic Gloves.flv (157.9 MiB)
    • 39 - The Robot Prince.flv (171.9 MiB)
    • 40 - Diana-s Adventure.avi (100.0 MiB)
    • 41 - The Lion in the Desert.avi (88.8 MiB)
    • 42 - Crisis On The Earth.mp4 (273.0 MiB)
    • 43 - The Horror Of A Snowman.flv (172.8 MiB)
    • 44 - Revenge In The Valley.flv (158.1 MiB)
    • 45 - The Comet Missile.flv (154.2 MiB)
    • 46 - The Mystery of a Mummy.avi (96.0 MiB)
    • 47 - The Mystery Of Organ.flv (165.2 MiB)
    • 48 - Horror at 10_10 P.M.flv (172.5 MiB)
    • 49 - The Birdman Racket.flv (171.7 MiB)
    • 50 - Secret Path Into The Earth.flv (171.9 MiB)
    • 51 - Ajababa's Children.flv (172.4 MiB)
    • 52 - The Star At Home.flv (165.7 MiB)